#TITLE:Love, Life & Happiness;
#SUBTITLE:;
#ARTIST:Stealth;
#TITLETRANSLIT:;
#SUBTITLETRANSLIT:;
#ARTISTTRANSLIT:;
#CREDIT:;
#BANNER:Love Life Happiness-banner.png;
#BACKGROUND:Love Life Happiness-bg.png;
#LYRICSPATH:;
#CDTITLE:;
#MUSIC:LLH.mp3;
#MUSICLENGTH:84.566;
#OFFSET:-0.080;
#SAMPLESTART:11.005;
#SAMPLELENGTH:12.000;
#SELECTABLE:YES;
#BPMS:0.000=172.900;
#STOPS:;
#BGCHANGES:;
#FIRSTBEAT:12.000;

#LASTBEAT:244.000;

#SONGFILENAME:Songs/ERICth The 3rd/Love Life Happiness/Love Life Happiness.sm;

#HASMUSIC:1;

#HASBANNER:1;


//---------------dance-single - MANIAC----------------
#NOTES:
     dance-single:
     MANIAC:
     hard:
     9:
     0.728,0.757,0.922,0.307,0.095,327.000,78.000,26.000,0.000,0.000:  // measure 1
0000
0000
0000
0000
,  // measure 2
0000
0000
0000
0000
,  // measure 3
0000
0000
0000
0000
,  // measure 4
1020
0000
0000
0030
,  // measure 5
1000
0000
0001
0000
,  // measure 6
0210
0000
0000
0300
,  // measure 7
0001
0000
1000
0000
,  // measure 8
0020
0000
0000
0000
0030
0000
0000
0000
0000
0000
0001
0000
0010
0100
0010
0000
,  // measure 9
1001
0001
0100
0000
0110
0010
1000
1000
,  // measure 10
0100
0010
0000
0010
0101
0000
1100
0000
,  // measure 11
0010
1000
0001
0100
0000
0100
0011
0001
,  // measure 12
1000
2000
0000
3001
1001
0000
1010
0100
,  // measure 13
0001
1000
0010
1100
0000
1100
0010
0001
,  // measure 14
2000
0000
0000
0000
3010
0000
1010
0000
0000
0000
0010
0000
0001
1000
0001
0000
,  // measure 15
0201
0000
0310
0000
1200
0000
0310
1000
,  // measure 16
0100
0000
0000
0100
0000
0000
0100
0000
0000
0000
1000
0000
0010
0001
0010
0000
,  // measure 17
1001
0001
0100
0000
0110
0010
1000
1000
,  // measure 18
0100
0010
0000
0010
0101
0000
1100
0000
,  // measure 19
0010
1000
0001
0100
0000
0100
0011
0001
,  // measure 20
1000
2000
0000
3001
1001
0000
1010
0100
,  // measure 21
0001
1000
0010
1100
0000
1100
0010
0001
,  // measure 22
2000
0000
0000
0000
3010
0000
1010
0000
0000
0000
0010
0000
0001
1000
0001
0000
,  // measure 23
0201
0000
0310
0000
1200
0000
0310
1000
,  // measure 24
0100
0000
0000
0100
0000
0000
0100
0000
0000
0000
1000
0000
0010
0001
0010
0000
,  // measure 25
1001
0001
0100
0000
0110
0010
1000
1000
,  // measure 26
0100
0010
0000
0010
0101
0000
1100
0000
,  // measure 27
0010
1000
0001
0100
0000
0100
0011
0001
,  // measure 28
1000
2000
0000
3001
1001
0000
1010
0100
,  // measure 29
0001
1000
0010
1100
0000
1100
0010
0001
,  // measure 30
2000
0000
0000
0000
3010
0000
1010
0000
0000
0000
0010
0000
0001
1000
0001
0000
,  // measure 31
0201
0000
0310
0000
1200
0000
0310
1000
,  // measure 32
0200
0010
0320
0001
,  // measure 33
0032
1000
0000
1000
0000
1000
0000
1000
,  // measure 34
0203
0010
0000
0010
0000
0010
0000
0010
,  // measure 35
2300
0100
0000
0100
0000
0100
0000
0100
,  // measure 36
3200
0010
0000
0010
0000
0010
0000
0010
,  // measure 37
0301
0010
0001
1000
0001
0100
0001
0010
,  // measure 38
0001
0010
0100
1000
0100
0010
0100
1000
,  // measure 39
0001
0100
0010
0100
0001
1000
0010
0001
,  // measure 40
0010
1000
0100
0001
0100
1000
0010
1000
,  // measure 41
0002
0000
0000
0000
,  // measure 42
1003
0010
1000
0000
1010
0000
0000
0000
0010
0000
0001
0000
0100
0000
0000
0000
,  // measure 43
1001
0110
0101
1100
,  // measure 44
0010
0001
0010
0000
0011
0000
0000
0000
0010
0000
1000
0000
0100
0000
0000
0000
,  // measure 45
0110
1001
0011
1010
,  // measure 46
0100
1000
0010
0000
1010
0000
0000
0000
0100
0000
0001
0000
0010
0000
0000
0000
,  // measure 47
1100
0001
0101
0100
1100
0001
0011
0000
,  // measure 48
0001
0100
0010
0000
0011
0000
0000
0000
0100
0000
1000
0000
0010
0000
0000
0000
,  // measure 49
0101
0010
1001
0001
0110
1000
1010
0000
,  // measure 50
1000
0010
1000
0000
1010
0000
0000
0000
0010
0000
0001
0000
0100
0000
0000
0000
,  // measure 51
1001
0110
0101
1100
,  // measure 52
0010
0001
0010
0000
0011
0000
0000
0000
0010
0000
1000
0000
0100
0000
0000
0000
,  // measure 53
0110
1001
0011
1010
,  // measure 54
0100
1000
0010
0000
1010
0000
0000
0000
0100
0000
0001
0000
0010
0000
0000
0000
,  // measure 55
1100
0001
0101
0100
1100
0001
0011
0000
,  // measure 56
0001
0100
0010
0000
0011
0000
0000
0000
0100
0000
1000
0000
0010
0000
0000
0000
,  // measure 57
0101
0010
1001
0001
0110
1000
1010
0000
,  // measure 58
0020
1000
0100
0001
,  // measure 59
2030
0100
0001
0010
,  // measure 60
3002
0100
1000
0010
,  // measure 61
0203
0000
0000
0000
,  // measure 62
0300
0000
0000
0000
;

//---------------dance-single - ANOTHER----------------
#NOTES:
     dance-single:
     ANOTHER:
     medium:
     6:
     0.453,0.611,0.083,0.106,0.000,252.000,7.000,9.000,0.000,0.000:  // measure 1
0000
0000
0000
0000
,  // measure 2
0000
0000
0000
0000
,  // measure 3
0000
0000
0000
0000
,  // measure 4
0000
0000
0000
0000
,  // measure 5
0010
0000
1000
0000
,  // measure 6
0001
0000
0000
0000
,  // measure 7
0100
0000
0010
0000
,  // measure 8
0100
0000
0000
0000
,  // measure 9
1000
0000
0001
0000
0100
0000
0010
1000
,  // measure 10
0100
0100
0010
0001
,  // measure 11
1000
0000
0010
0000
0100
0001
0010
0000
,  // measure 12
0001
1000
0100
0010
0100
0000
1000
0000
,  // measure 13
0001
0100
0001
1000
0000
0001
1000
0001
,  // measure 14
0010
0100
1000
0001
,  // measure 15
0100
0000
0001
0000
,  // measure 16
1000
0100
0010
0100
0000
0000
1000
0000
,  // measure 17
0001
0100
0010
1000
,  // measure 18
0001
0100
0001
1000
0010
0000
0100
0000
,  // measure 19
0001
1000
0001
0010
0100
1000
0001
0100
,  // measure 20
0001
0010
0001
1000
0100
0000
0000
0000
,  // measure 21
0001
1000
0100
1000
0000
1000
0001
0000
,  // measure 22
0010
0100
1000
0001
,  // measure 23
1001
0100
0110
0001
,  // measure 24
2000
0000
0000
0000
0001
0000
0001
3000
,  // measure 25
1001
0000
0100
0000
0010
0000
0001
1000
,  // measure 26
0010
0000
0100
0000
0001
0000
1000
0100
,  // measure 27
0010
0100
1000
0001
0100
0001
0010
0100
,  // measure 28
1000
0001
0100
0001
0010
0100
1000
0001
,  // measure 29
0100
0001
0010
0100
0100
1000
0100
0010
,  // measure 30
0001
1000
0001
0010
0100
1000
0001
0001
,  // measure 31
0000
0010
0100
1000
0100
0010
0100
1000
,  // measure 32
0010
0100
0001
1000
,  // measure 33
0200
0010
0010
0010
,  // measure 34
2300
0010
0010
0010
,  // measure 35
3002
0100
0100
0100
,  // measure 36
2003
0001
0001
0001
,  // measure 37
3020
0100
0100
0100
,  // measure 38
2000
0000
0000
0000
,  // measure 39
0000
0000
0000
0000
0000
0000
0000
3030
,  // measure 40
1001
0000
1001
1001
,  // measure 41
1001
0000
0000
0000
,  // measure 42
0100
0010
0001
1000
,  // measure 43
0100
0010
0100
0000
1000
0001
0100
0000
,  // measure 44
0001
1000
0010
0100
,  // measure 45
0001
0010
0001
0000
1000
0100
1000
0000
,  // measure 46
0001
0010
0100
1000
,  // measure 47
0001
0100
0001
0000
1000
0010
1000
0000
,  // measure 48
0001
0010
0100
1000
,  // measure 49
0001
0100
0001
1000
0001
0000
0000
0000
,  // measure 50
0100
0010
0100
0000
1000
0000
0001
0000
,  // measure 51
0100
0010
1000
0000
0010
1000
0010
0000
,  // measure 52
0010
0001
1000
0001
,  // measure 53
1000
0100
0001
0000
0001
0100
1000
0000
,  // measure 54
0010
0000
1000
0000
0001
0010
0001
0000
,  // measure 55
0010
1000
0100
0000
0001
0000
0001
0000
,  // measure 56
1000
0010
1000
0001
,  // measure 57
0010
0100
1000
0001
0100
0000
0001
0000
,  // measure 58
1000
0010
0100
1000
,  // measure 59
0001
0100
0010
1000
,  // measure 60
0002
0000
0000
0000
,  // measure 61
2000
0000
0000
3003
;

//---------------dance-single - BASIC----------------
#NOTES:
     dance-single:
     BASIC:
     easy:
     3:
     0.280,0.359,0.012,0.083,0.000,158.000,1.000,7.000,0.000,1.000:  // measure 1
0000
0000
0000
0000
,  // measure 2
0000
0000
0000
0000
,  // measure 3
0000
0000
0000
0000
,  // measure 4
0000
0000
0000
0000
,  // measure 5
0002
0000
2000
0000
,  // measure 6
0000
0000
0000
0000
,  // measure 7
3023
0000
0000
2000
,  // measure 8
0000
0000
0000
3030
,  // measure 9
0001
1000
0100
0000
,  // measure 10
0001
0010
0100
0000
,  // measure 11
1000
0001
0100
0000
,  // measure 12
0010
1000
0100
0000
,  // measure 13
0010
0001
1000
0000
,  // measure 14
0001
0100
0001
0000
,  // measure 15
1000
0000
0001
0000
,  // measure 16
1000
0010
0100
0001
,  // measure 17
1000
0100
0010
0000
,  // measure 18
0001
1000
0001
0000
,  // measure 19
0100
0010
0100
0000
,  // measure 20
1000
0001
0100
0000
,  // measure 21
0010
1000
0001
0000
,  // measure 22
0001
0001
0001
0000
,  // measure 23
1000
0000
0001
0000
,  // measure 24
0100
0100
0000
0000
,  // measure 25
0010
0000
1000
0000
,  // measure 26
0001
0010
0100
0000
,  // measure 27
0001
0100
1000
0000
,  // measure 28
0010
1000
0100
0000
,  // measure 29
1000
0010
0100
0001
,  // measure 30
0010
0100
1000
0000
,  // measure 31
0001
0000
1000
0000
,  // measure 32
0001
0001
0001
0001
,  // measure 33
1000
1000
1000
1000
,  // measure 34
0010
0010
0010
0010
,  // measure 35
0100
0100
0100
0100
,  // measure 36
0001
0001
0001
0001
,  // measure 37
0010
0010
0010
0010
,  // measure 38
0100
0100
0100
0100
,  // measure 39
1000
1000
1000
1000
,  // measure 40
0001
0001
0100
0100
,  // measure 41
0220
0000
0000
0330
,  // measure 42
0001
0000
1000
0000
,  // measure 43
0010
0000
0100
0100
,  // measure 44
0100
0000
0001
0000
,  // measure 45
1000
0000
0010
0010
,  // measure 46
0010
0000
0001
0000
,  // measure 47
0100
0000
1000
0001
,  // measure 48
0001
0000
1000
0000
,  // measure 49
0010
0000
0001
1000
,  // measure 50
1000
0000
0100
0000
,  // measure 51
0010
0000
0001
0000
,  // measure 52
1000
0000
0010
0000
,  // measure 53
0100
0000
0001
0000
,  // measure 54
1000
0000
0001
0000
,  // measure 55
0010
0000
0100
0000
,  // measure 56
1000
0000
0001
0000
,  // measure 57
0010
0100
0010
0010
,  // measure 58
0010
0001
1000
0100
,  // measure 59
1000
0001
0100
0001
,  // measure 60
0010
0001
1000
0010
,  // measure 61
0200
0000
0000
0300
;
